  0
SECTION
  2
HEADER
  9
$ACADVER
  1
AC1014
  9
$ACADMAINTVER
 70
     9
  9
$DWGCODEPAGE
  3
ANSI_1252
  9
$INSBASE
 10
0.0
 20
0.0
 30
0.0
  9
$EXTMIN
 10
3.234189038199634
 20
3.212005860258975
 30
0.0
  9
$EXTMAX
 10
9.950336693371969
 20
8.448527587899778
 30
0.0
  9
$LIMMIN
 10
0.0
 20
0.0
  9
$LIMMAX
 10
12.0
 20
9.0
  9
$ORTHOMODE
 70
     0
  9
$REGENMODE
 70
     1
  9
$FILLMODE
 70
     1
  9
$QTEXTMODE
 70
     0
  9
$MIRRTEXT
 70
     1
  9
$DRAGMODE
 70
     2
  9
$LTSCALE
 40
1.0
  9
$OSMODE
 70
     0
  9
$ATTMODE
 70
     1
  9
$TEXTSIZE
 40
0.2
  9
$TRACEWID
 40
0.05
  9
$TEXTSTYLE
  7
STANDARD
  9
$CLAYER
  8
0
  9
$CELTYPE
  6
BYLAYER
  9
$CECOLOR
 62
   256
  9
$CELTSCALE
 40
1.0
  9
$DELOBJ
 70
     1
  9
$DISPSILH
 70
     0
  9
$DIMSCALE
 40
1.0
  9
$DIMASZ
 40
0.18
  9
$DIMEXO
 40
0.0625
  9
$DIMDLI
 40
0.38
  9
$DIMRND
 40
0.0
  9
$DIMDLE
 40
0.0
  9
$DIMEXE
 40
0.18
  9
$DIMTP
 40
0.0
  9
$DIMTM
 40
0.0
  9
$DIMTXT
 40
0.18
  9
$DIMCEN
 40
0.09
  9
$DIMTSZ
 40
0.0
  9
$DIMTOL
 70
     0
  9
$DIMLIM
 70
     0
  9
$DIMTIH
 70
     1
  9
$DIMTOH
 70
     1
  9
$DIMSE1
 70
     0
  9
$DIMSE2
 70
     0
  9
$DIMTAD
 70
     0
  9
$DIMZIN
 70
     0
  9
$DIMBLK
  1

  9
$DIMASO
 70
     1
  9
$DIMSHO
 70
     1
  9
$DIMPOST
  1

  9
$DIMAPOST
  1

  9
$DIMALT
 70
     0
  9
$DIMALTD
 70
     2
  9
$DIMALTF
 40
25.4
  9
$DIMLFAC
 40
1.0
  9
$DIMTOFL
 70
     0
  9
$DIMTVP
 40
0.0
  9
$DIMTIX
 70
     0
  9
$DIMSOXD
 70
     0
  9
$DIMSAH
 70
     0
  9
$DIMBLK1
  1

  9
$DIMBLK2
  1

  9
$DIMSTYLE
  2
STANDARD
  9
$DIMCLRD
 70
     0
  9
$DIMCLRE
 70
     0
  9
$DIMCLRT
 70
     0
  9
$DIMTFAC
 40
1.0
  9
$DIMGAP
 40
0.09
  9
$DIMJUST
 70
     0
  9
$DIMSD1
 70
     0
  9
$DIMSD2
 70
     0
  9
$DIMTOLJ
 70
     1
  9
$DIMTZIN
 70
     0
  9
$DIMALTZ
 70
     0
  9
$DIMALTTZ
 70
     0
  9
$DIMFIT
 70
     3
  9
$DIMUPT
 70
     0
  9
$DIMUNIT
 70
     2
  9
$DIMDEC
 70
     2
  9
$DIMTDEC
 70
     2
  9
$DIMALTU
 70
     2
  9
$DIMALTTD
 70
     2
  9
$DIMTXSTY
  7
STANDARD
  9
$DIMAUNIT
 70
     0
  9
$LUNITS
 70
     2
  9
$LUPREC
 70
     4
  9
$SKETCHINC
 40
0.1
  9
$FILLETRAD
 40
0.5
  9
$AUNITS
 70
     0
  9
$AUPREC
 70
     0
  9
$MENU
  1
.
  9
$ELEVATION
 40
0.0
  9
$PELEVATION
 40
0.0
  9
$THICKNESS
 40
0.0
  9
$LIMCHECK
 70
     0
  9
$BLIPMODE
 70
     0
  9
$CHAMFERA
 40
0.5
  9
$CHAMFERB
 40
0.5
  9
$CHAMFERC
 40
1.0
  9
$CHAMFERD
 40
0.0
  9
$SKPOLY
 70
     0
  9
$TDCREATE
 40
2452177.308861574
  9
$TDUPDATE
 40
2452646.392570949
  9
$TDINDWG
 40
0.0069666667
  9
$TDUSRTIMER
 40
0.0069666667
  9
$USRTIMER
 70
     1
  9
$ANGBASE
 50
0.0
  9
$ANGDIR
 70
     0
  9
$PDMODE
 70
     0
  9
$PDSIZE
 40
0.0
  9
$PLINEWID
 40
0.0
  9
$COORDS
 70
     1
  9
$SPLFRAME
 70
     0
  9
$SPLINETYPE
 70
     6
  9
$SPLINESEGS
 70
     8
  9
$ATTDIA
 70
     1
  9
$ATTREQ
 70
     1
  9
$HANDLING
 70
-16383
  9
$HANDSEED
  5
213
  9
$SURFTAB1
 70
     6
  9
$SURFTAB2
 70
     6
  9
$SURFTYPE
 70
     6
  9
$SURFU
 70
     6
  9
$SURFV
 70
     6
  9
$UCSNAME
  2

  9
$UCSORG
 10
0.0
 20
0.0
 30
0.0
  9
$UCSXDIR
 10
1.0
 20
0.0
 30
0.0
  9
$UCSYDIR
 10
0.0
 20
1.0
 30
0.0
  9
$PUCSNAME
  2

  9
$PUCSORG
 10
0.0
 20
0.0
 30
0.0
  9
$PUCSXDIR
 10
1.0
 20
0.0
 30
0.0
  9
$PUCSYDIR
 10
0.0
 20
1.0
 30
0.0
  9
$USERI1
 70
     0
  9
$USERI2
 70
     0
  9
$USERI3
 70
     0
  9
$USERI4
 70
     0
  9
$USERI5
 70
     0
  9
$USERR1
 40
0.0
  9
$USERR2
 40
0.0
  9
$USERR3
 40
0.0
  9
$USERR4
 40
0.0
  9
$USERR5
 40
0.0
  9
$WORLDVIEW
 70
     1
  9
$SHADEDGE
 70
     3
  9
$SHADEDIF
 70
    70
  9
$TILEMODE
 70
     1
  9
$MAXACTVP
 70
    64
  9
$PINSBASE
 10
0.0
 20
0.0
 30
0.0
  9
$PLIMCHECK
 70
     0
  9
$PEXTMIN
 10
1.000000000000000E+20
 20
1.000000000000000E+20
 30
1.000000000000000E+20
  9
$PEXTMAX
 10
-1.000000000000000E+20
 20
-1.000000000000000E+20
 30
-1.000000000000000E+20
  9
$PLIMMIN
 10
0.0
 20
0.0
  9
$PLIMMAX
 10
12.0
 20
9.0
  9
$UNITMODE
 70
     0
  9
$VISRETAIN
 70
     1
  9
$PLINEGEN
 70
     0
  9
$PSLTSCALE
 70
     1
  9
$TREEDEPTH
 70
  3020
  9
$PICKSTYLE
 70
     1
  9
$CMLSTYLE
  2
STANDARD
  9
$CMLJUST
 70
     0
  9
$CMLSCALE
 40
1.0
  9
$PROXYGRAPHICS
 70
     1
  9
$MEASUREMENT
 70
     0
  0
ENDSEC
  0
SECTION
  2
CLASSES
  0
CLASS
  1
ACDBDICTIONARYWDFLT
  2
AcDbDictionaryWithDefault
  3
AutoCAD 2000
 90
        0
280
     0
281
     0
  0
CLASS
  1
ACDBPLACEHOLDER
  2
AcDbPlaceHolder
  3
AutoCAD 2000
 90
        0
280
     0
281
     0
  0
CLASS
  1
LAYOUT
  2
AcDbLayout
  3
AutoCAD 2000
 90
        0
280
     0
281
     0
  0
CLASS
  1
LONG_TRANSACTION
  2
AcDbLongTransaction
  3
AutoCAD 2000
 90
        0
280
     0
281
     0
  0
CLASS
  1
LWPOLYLINE
  2
AcDbPolyline
  3
AutoCAD 2000
 90
        0
280
     0
281
     1
  0
CLASS
  1
HATCH
  2
AcDbHatch
  3
AutoCAD 2000
 90
        0
280
     0
281
     1
  0
CLASS
  1
XRECORD
  2
AcDbXrecord
  3
AutoCAD 2000
 90
        0
280
     0
281
     0
  0
ENDSEC
  0
SECTION
  2
TABLES
  0
TABLE
  2
VPORT
  5
8
330
0
100
AcDbSymbolTable
 70
     3
  0
VPORT
  5
1EC
330
8
100
AcDbSymbolTableRecord
100
AcDbViewportTableRecord
  2
*ACTIVE
 70
     0
 10
0.0
 20
0.0
 11
1.0
 21
1.0
 12
6.58133144125172
 22
5.283088231257247
 13
0.0
 23
0.0
 14
0.5
 24
0.5
 15
0.5
 25
0.5
 16
0.0
 26
0.0
 36
1.0
 17
0.0
 27
0.0
 37
0.0
 40
9.000383529783603
 41
1.462515883100381
 42
50.0
 43
0.0
 44
0.0
 50
0.0
 51
0.0
 71
     0
 72
   100
 73
     1
 74
     3
 75
     0
 76
     0
 77
     0
 78
     0
  0
ENDTAB
  0
TABLE
  2
LTYPE
  5
5
330
0
100
AcDbSymbolTable
 70
     1
  0
LTYPE
  5
14
330
5
100
AcDbSymbolTableRecord
100
AcDbLinetypeTableRecord
  2
BYBLOCK
 70
     0
  3

 72
    65
 73
     0
 40
0.0
  0
LTYPE
  5
15
330
5
100
AcDbSymbolTableRecord
100
AcDbLinetypeTableRecord
  2
BYLAYER
 70
     0
  3

 72
    65
 73
     0
 40
0.0
  0
LTYPE
  5
16
330
5
100
AcDbSymbolTableRecord
100
AcDbLinetypeTableRecord
  2
CONTINUOUS
 70
     0
  3
Solid line
 72
    65
 73
     0
 40
0.0
  0
ENDTAB
  0
TABLE
  2
LAYER
  5
2
330
0
100
AcDbSymbolTable
 70
     4
  0
LAYER
  5
10
330
2
100
AcDbSymbolTableRecord
100
AcDbLayerTableRecord
  2
0
 70
     0
 62
     7
  6
CONTINUOUS
  0
LAYER
  5
34
330
2
100
AcDbSymbolTableRecord
100
AcDbLayerTableRecord
  2
L
 70
     0
 62
     7
  6
CONTINUOUS
  0
LAYER
  5
45
330
2
100
AcDbSymbolTableRecord
100
AcDbLayerTableRecord
  2
DEFPOINTS
 70
     0
 62
     7
  6
CONTINUOUS
  0
LAYER
  5
88
330
2
100
AcDbSymbolTableRecord
100
AcDbLayerTableRecord
  2
TX
 70
     0
 62
   150
  6
CONTINUOUS
  0
ENDTAB
  0
TABLE
  2
STYLE
  5
3
330
0
100
AcDbSymbolTable
 70
     3
  0
STYLE
  5
11
330
3
100
AcDbSymbolTableRecord
100
AcDbTextStyleTableRecord
  2
STANDARD
 70
     0
 40
0.0
 41
1.0
 50
0.0
 71
     0
 42
0.2
  3
txt
  4

  0
STYLE
  5
35
330
3
100
AcDbSymbolTableRecord
100
AcDbTextStyleTableRecord
  2
REG
 70
     0
 40
0.0
 41
1.0
 50
0.0
 71
     0
 42
0.09375
  3
E:\R13\com\fonts\ARCHITXT.SHX
  4

  0
STYLE
  5
36
330
3
100
AcDbSymbolTableRecord
100
AcDbTextStyleTableRecord
  2
DIMTXT
 70
     0
 40
0.0
 41
1.0
 50
0.0
 71
     0
 42
1.125
  3
archt.shx
  4

  0
ENDTAB
  0
TABLE
  2
VIEW
  5
6
330
0
100
AcDbSymbolTable
 70
     0
  0
ENDTAB
  0
TABLE
  2
UCS
  5
7
330
0
100
AcDbSymbolTable
 70
     0
  0
ENDTAB
  0
TABLE
  2
APPID
  5
9
330
0
100
AcDbSymbolTable
 70
     1
  0
APPID
  5
12
330
9
100
AcDbSymbolTableRecord
100
AcDbRegAppTableRecord
  2
ACAD
 70
     0
  0
ENDTAB
  0
TABLE
  2
DIMSTYLE
  5
A
330
0
100
AcDbSymbolTable
 70
     6
  0
DIMSTYLE
105
27
102
{ACAD_REACTORS
330
C1
330
CF
102
}
330
A
100
AcDbSymbolTableRecord
100
AcDbDimStyleTableRecord
  2
STANDARD
 70
     0
  3

  4

  5

  6

  7

 40
1.0
 41
0.18
 42
0.0625
 43
0.38
 44
0.18
 45
0.0
 46
0.0
 47
0.0
 48
0.0
140
0.18
141
0.09
142
0.0
143
25.4
144
1.0
145
0.0
146
1.0
147
0.09
 71
     0
 72
     0
 73
     1
 74
     1
 75
     0
 76
     0
 77
     0
 78
     0
170
     0
171
     2
172
     0
173
     0
174
     0
175
     0
176
     0
177
     0
178
     0
270
     2
271
     2
272
     2
273
     2
274
     2
340
11
275
     0
280
     0
281
     0
282
     0
283
     1
284
     0
285
     0
286
     0
287
     3
288
     0
  0
DIMSTYLE
105
37
330
A
100
AcDbSymbolTableRecord
100
AcDbDimStyleTableRecord
  2
1
 70
     0
  3

  4

  5

  6

  7

 40
1.0
 41
1.125
 42
0.5
 43
0.375
 44
1.19921875
 45
0.0
 46
0.5
 47
0.0
 48
0.0
140
1.125
141
0.125
142
0.0
143
25.4
144
1.0
145
0.0
146
0.8
147
0.5625
 71
     0
 72
     0
 73
     0
 74
     0
 75
     0
 76
     0
 77
     1
 78
     3
170
     0
171
     2
172
     1
173
     0
174
     1
175
     0
176
   133
177
   133
178
   150
270
     2
271
     3
272
     3
273
     2
274
     2
340
36
275
     0
280
     0
281
     0
282
     0
283
     1
284
     0
285
     0
286
     0
287
     4
288
     0
  0
DIMSTYLE
105
38
330
A
100
AcDbSymbolTableRecord
100
AcDbDimStyleTableRecord
  2
1$2
 70
     0
  3

  4

  5
DOTSMALL
  6

  7

 40
1.0
 41
1.5
 42
0.5
 43
0.375
 44
1.19921875
 45
0.0
 46
0.5
 47
0.0
 48
0.0
140
0.75
141
0.125
142
0.0
143
25.4
144
1.0
145
0.0
146
0.8
147
0.5625
 71
     0
 72
     0
 73
     0
 74
     0
 75
     0
 76
     0
 77
     1
 78
     3
170
     0
171
     2
172
     1
173
     0
174
     1
175
     0
176
   133
177
   133
178
   150
270
     2
271
     3
272
     3
273
     2
274
     2
340
36
275
     0
280
     0
281
     0
282
     0
283
     1
284
     0
285
     0
286
     0
287
     4
288
     0
  0
DIMSTYLE
105
39
330
A
100
AcDbSymbolTableRecord
100
AcDbDimStyleTableRecord
  2
1$4
 70
     0
  3

  4

  5

  6

  7
DOTSMALL
 40
1.0
 41
1.5
 42
0.5
 43
0.375
 44
1.19921875
 45
0.0
 46
0.5
 47
0.0
 48
0.0
140
0.75
141
0.125
142
0.0
143
25.4
144
1.0
145
0.0
146
0.8
147
0.5625
 71
     0
 72
     0
 73
     0
 74
     0
 75
     0
 76
     0
 77
     1
 78
     3
170
     0
171
     2
172
     1
173
     1
174
     1
175
     0
176
   133
177
   133
178
   150
270
     2
271
     3
272
     3
273
     2
274
     2
340
36
275
     0
280
     0
281
     0
282
     0
283
     1
284
     0
285
     0
286
     0
287
     4
288
     0
  0
DIMSTYLE
105
3A
330
A
100
AcDbSymbolTableRecord
100
AcDbDimStyleTableRecord
  2
1$3
 70
     0
  3

  4

  5
DOTSMALL
  6

  7

 40
1.0
 41
1.5
 42
0.5
 43
0.375
 44
1.19921875
 45
0.0
 46
0.5
 47
0.0
 48
0.0
140
0.75
141
0.125
142
0.0
143
25.4
144
1.0
145
0.0
146
0.8
147
0.5625
 71
     0
 72
     0
 73
     0
 74
     0
 75
     0
 76
     0
 77
     1
 78
     3
170
     0
171
     2
172
     1
173
     0
174
     1
175
     0
176
   133
177
   133
178
   150
270
     2
271
     3
272
     3
273
     2
274
     2
340
36
275
     0
280
     0
281
     0
282
     0
283
     1
284
     0
285
     0
286
     0
287
     4
288
     0
  0
DIMSTYLE
105
3B
330
A
100
AcDbSymbolTableRecord
100
AcDbDimStyleTableRecord
  2
1$7
 70
     0
  3

  4

  5

  6

  7

 40
1.0
 41
1.0
 42
0.5
 43
0.375
 44
1.19921875
 45
0.0
 46
0.5
 47
0.0
 48
0.0
140
0.75
141
0.125
142
0.0
143
25.4
144
1.0
145
0.0
146
0.8
147
0.5625
 71
     0
 72
     0
 73
     0
 74
     0
 75
     0
 76
     0
 77
     1
 78
     3
170
     0
171
     2
172
     1
173
     0
174
     1
175
     0
176
   133
177
   133
178
   150
270
     2
271
     3
272
     3
273
     2
274
     2
340
36
275
     0
280
     0
281
     0
282
     0
283
     1
284
     0
285
     0
286
     0
287
     4
288
     0
  0
ENDTAB
  0
TABLE
  2
BLOCK_RECORD
  5
1
330
0
100
AcDbSymbolTable
 70
     5
  0
BLOCK_RECORD
  5
1F
102
{ACAD_XDICTIONARY
360
20F
102
}
330
1
100
AcDbSymbolTableRecord
100
AcDbBlockTableRecord
  2
*MODEL_SPACE
  0
BLOCK_RECORD
  5
1B
102
{ACAD_XDICTIONARY
360
20D
102
}
330
1
100
AcDbSymbolTableRecord
100
AcDbBlockTableRecord
  2
*PAPER_SPACE
  0
BLOCK_RECORD
  5
2B
330
1
100
AcDbSymbolTableRecord
100
AcDbBlockTableRecord
  2
_DOT
  0
BLOCK_RECORD
  5
30
330
1
100
AcDbSymbolTableRecord
100
AcDbBlockTableRecord
  2
_DOTSMALL
  0
BLOCK_RECORD
  5
C2
330
1
100
AcDbSymbolTableRecord
100
AcDbBlockTableRecord
  2
*D3
  0
BLOCK_RECORD
  5
D0
330
1
100
AcDbSymbolTableRecord
100
AcDbBlockTableRecord
  2
*D4
  0
ENDTAB
  0
ENDSEC
  0
SECTION
  2
BLOCKS
  0
BLOCK
  5
20
330
1F
100
AcDbEntity
  8
0
100
AcDbBlockBegin
  2
*MODEL_SPACE
 70
     0
 10
0.0
 20
0.0
 30
0.0
  3
*MODEL_SPACE
  1

  0
ENDBLK
  5
21
330
1F
100
AcDbEntity
  8
0
100
AcDbBlockEnd
  0
BLOCK
  5
1C
330
1B
100
AcDbEntity
 67
     1
  8
0
100
AcDbBlockBegin
  2
*PAPER_SPACE
 70
     0
 10
0.0
 20
0.0
 30
0.0
  3
*PAPER_SPACE
  1

  0
ENDBLK
  5
1D
330
1B
100
AcDbEntity
 67
     1
  8
0
100
AcDbBlockEnd
  0
BLOCK
  5
2E
330
2B
100
AcDbEntity
  8
0
100
AcDbBlockBegin
  2
_DOT
 70
     0
 10
0.0
 20
0.0
 30
0.0
  3
_DOT
  1

  0
LWPOLYLINE
  5
2C
330
2B
100
AcDbEntity
  8
L
 62
     0
100
AcDbPolyline
 90
        2
 70
     1
 43
0.5
 10
-0.25
 20
0.0
 42
1.0
 10
0.25
 20
0.0
 42
1.0
  0
LINE
  5
2D
330
2B
100
AcDbEntity
  8
L
 62
     0
100
AcDbLine
 10
-0.5
 20
0.0
 30
0.0
 11
-1.0
 21
0.0
 31
0.0
  0
ENDBLK
  5
2F
330
2B
100
AcDbEntity
  8
0
100
AcDbBlockEnd
  0
BLOCK
  5
32
330
30
100
AcDbEntity
  8
0
 48
0.116666
100
AcDbBlockBegin
  2
_DOTSMALL
 70
     0
 10
0.0
 20
0.0
 30
0.0
  3
_DOTSMALL
  1

  0
LWPOLYLINE
  5
31
330
30
100
AcDbEntity
  8
0
  6
BYBLOCK
 62
     0
100
AcDbPolyline
 90
        2
 70
     1
 43
0.5
 10
-0.0625
 20
0.0
 42
1.0
 10
0.0625
 20
0.0
 42
1.0
  0
ENDBLK
  5
33
330
30
100
AcDbEntity
  8
0
 48
0.116666
100
AcDbBlockEnd
  0
BLOCK
  5
CD
330
C2
100
AcDbEntity
  8
0
100
AcDbBlockBegin
  2
*D3
 70
     1
 10
0.0
 20
0.0
 30
0.0
  3
*D3
  1

  0
LINE
  5
C3
330
C2
100
AcDbEntity
  8
0
 62
     0
100
AcDbLine
 10
8.13406118600044
 20
7.172010536183254
 30
0.0
 11
8.13406118600044
 21
8.448527587899778
 31
0.0
  0
LINE
  5
C4
330
C2
100
AcDbEntity
  8
0
 62
     0
100
AcDbLine
 10
4.859061186000349
 20
7.172010536183254
 30
0.0
 11
4.859061186000349
 21
8.448527587899778
 31
0.0
  0
LINE
  5
C5
330
C2
100
AcDbEntity
  8
0
 62
     0
100
AcDbLine
 10
7.954061186000441
 20
8.268527587899779
 30
0.0
 11
6.856561186000395
 21
8.268527587899779
 31
0.0
  0
LINE
  5
C6
330
C2
100
AcDbEntity
  8
0
 62
     0
100
AcDbLine
 10
5.039061186000349
 20
8.268527587899779
 30
0.0
 11
6.136561186000395
 21
8.268527587899779
 31
0.0
  0
SOLID
  5
C7
330
C2
100
AcDbEntity
  8
0
 62
     0
100
AcDbTrace
 10
7.954061186000441
 20
8.298527587899778
 30
0.0
 11
7.954061186000441
 21
8.238527587899779
 31
0.0
 12
8.13406118600044
 22
8.268527587899779
 32
0.0
 13
8.13406118600044
 23
8.268527587899779
 33
0.0
  0
SOLID
  5
C8
330
C2
100
AcDbEntity
  8
0
 62
     0
100
AcDbTrace
 10
5.039061186000349
 20
8.298527587899778
 30
0.0
 11
5.039061186000349
 21
8.238527587899779
 31
0.0
 12
4.859061186000349
 22
8.268527587899779
 32
0.0
 13
4.859061186000349
 23
8.268527587899779
 33
0.0
  0
MTEXT
  5
C9
330
C2
100
AcDbEntity
  8
0
 62
     0
100
AcDbMText
 10
6.496561186000395
 20
8.268527587899779
 30
0.0
 40
0.18
 41
0.0
 71
     5
 72
     1
  1
\A1;3.28
1001
ACAD
1000
MTEXTBEGIN
1070
    73
1070
     1
1070
    44
1040
1.0
1070
    74
1070
     0
1000
MTEXTEND
  0
POINT
  5
CA
330
C2
100
AcDbEntity
  8
DEFPOINTS
 62
     0
100
AcDbPoint
 10
8.13406118600044
 20
7.109510536183254
 30
0.0
  0
POINT
  5
CB
330
C2
100
AcDbEntity
  8
DEFPOINTS
 62
     0
100
AcDbPoint
 10
4.859061186000349
 20
7.109510536183254
 30
0.0
  0
POINT
  5
CC
330
C2
100
AcDbEntity
  8
DEFPOINTS
 62
     0
100
AcDbPoint
 10
4.859061186000349
 20
8.268527587899779
 30
0.0
  0
ENDBLK
  5
CE
330
C2
100
AcDbEntity
  8
0
100
AcDbBlockEnd
  0
BLOCK
  5
DB
330
D0
100
AcDbEntity
  8
0
100
AcDbBlockBegin
  2
*D4
 70
     1
 10
0.0
 20
0.0
 30
0.0
  3
*D4
  1

  0
LINE
  5
D1
330
D0
100
AcDbEntity
  8
0
 62
     0
100
AcDbLine
 10
5.421561186000349
 20
7.734510536183254
 30
0.0
 11
4.03499700916272
 21
7.734510536183254
 31
0.0
  0
LINE
  5
D2
330
D0
100
AcDbEntity
  8
0
 62
     0
100
AcDbLine
 10
5.421561186000349
 20
4.484510536183254
 30
0.0
 11
4.034997009162719
 21
4.484510536183254
 31
0.0
  0
LINE
  5
D3
330
D0
100
AcDbEntity
  8
0
 62
     0
100
AcDbLine
 10
4.214997009162719
 20
7.554510536183254
 30
0.0
 11
4.214997009162719
 21
6.289510536183254
 31
0.0
  0
LINE
  5
D4
330
D0
100
AcDbEntity
  8
0
 62
     0
100
AcDbLine
 10
4.214997009162718
 20
4.664510536183254
 30
0.0
 11
4.214997009162718
 21
5.929510536183254
 31
0.0
  0
SOLID
  5
D5
330
D0
100
AcDbEntity
  8
0
 62
     0
100
AcDbTrace
 10
4.184997009162719
 20
7.554510536183254
 30
0.0
 11
4.24499700916272
 21
7.554510536183254
 31
0.0
 12
4.214997009162719
 22
7.734510536183254
 32
0.0
 13
4.214997009162719
 23
7.734510536183254
 33
0.0
  0
SOLID
  5
D6
330
D0
100
AcDbEntity
  8
0
 62
     0
100
AcDbTrace
 10
4.184997009162718
 20
4.664510536183254
 30
0.0
 11
4.244997009162719
 21
4.664510536183254
 31
0.0
 12
4.214997009162718
 22
4.484510536183254
 32
0.0
 13
4.214997009162718
 23
4.484510536183254
 33
0.0
  0
MTEXT
  5
D7
330
D0
100
AcDbEntity
  8
0
 62
     0
100
AcDbMText
 10
4.214997009162718
 20
6.109510536183255
 30
0.0
 40
0.18
 41
0.0
 71
     5
 72
     1
  1
\A1;3.25
1001
ACAD
1000
MTEXTBEGIN
1070
    73
1070
     1
1070
    44
1040
1.0
1070
    74
1070
     0
1000
MTEXTEND
  0
POINT
  5
D8
330
D0
100
AcDbEntity
  8
DEFPOINTS
 62
     0
100
AcDbPoint
 10
5.484061186000349
 20
7.734510536183254
 30
0.0
  0
POINT
  5
D9
330
D0
100
AcDbEntity
  8
DEFPOINTS
 62
     0
100
AcDbPoint
 10
5.484061186000349
 20
4.484510536183254
 30
0.0
  0
POINT
  5
DA
330
D0
100
AcDbEntity
  8
DEFPOINTS
 62
     0
100
AcDbPoint
 10
4.214997009162718
 20
4.484510536183254
 30
0.0
  0
ENDBLK
  5
DC
330
D0
100
AcDbEntity
  8
0
100
AcDbBlockEnd
  0
ENDSEC
  0
SECTION
  2
ENTITIES
  0
LWPOLYLINE
  5
BD
330
1F
100
AcDbEntity
  8
L
 62
     5
 48
0.116666
100
AcDbPolyline
 90
        2
 70
     0
 43
0.0282
 10
3.234189038199634
 20
3.403233044497458
 10
9.950336693371969
 20
3.403233044497458
  0
TEXT
  5
BE
330
1F
100
AcDbEntity
  8
L
 62
     3
 48
0.116666
100
AcDbText
 10
3.328174843127886
 20
3.497218849425596
 30
0.0
 40
0.141
  1
SERIES 3 - 3 1/4" SQUARE POST W/RADIUS EDGES #1235
  7
REG
100
AcDbText
  0
TEXT
  5
BF
330
1F
100
AcDbEntity
  8
TX
 48
0.116666
100
AcDbText
 10
3.328174843127886
 20
3.21524723956932
 30
0.0
 40
0.094
  1
SCALE : FULL SIZE
  7
REG
 11
3.328174843127886
 21
3.309247239569319
 31
0.0
100
AcDbText
 73
     3
  0
DIMENSION
  5
C1
330
1F
100
AcDbEntity
  8
0
100
AcDbDimension
  2
*D3
 10
4.859061186000349
 20
8.268527587899779
 30
0.0
 11
6.496561186000395
 21
8.268527587899779
 31
0.0
 70
    32
  3
STANDARD
100
AcDbAlignedDimension
 13
8.13406118600044
 23
7.109510536183254
 33
0.0
 14
4.859061186000349
 24
7.109510536183254
 34
0.0
100
AcDbRotatedDimension
  0
DIMENSION
  5
CF
330
1F
100
AcDbEntity
  8
0
100
AcDbDimension
  2
*D4
 10
4.214997009162718
 20
4.484510536183254
 30
0.0
 11
4.214997009162718
 21
6.109510536183255
 31
0.0
 70
    32
  3
STANDARD
100
AcDbAlignedDimension
 13
5.484061186000349
 23
7.734510536183254
 33
0.0
 14
5.484061186000349
 24
4.484510536183254
 34
0.0
 50
90.0
100
AcDbRotatedDimension
  0
LWPOLYLINE
  5
162
330
1F
100
AcDbEntity
  8
L
 62
     5
100
AcDbPolyline
 90
       64
 70
     1
 43
0.0
 10
7.290061186000446
 20
5.641510536183293
 42
0.4142135623736322
 10
7.228061186000491
 20
5.703510536183305
 10
5.765061186000298
 20
5.703510536183362
 42
0.4142135623736322
 10
5.7030611860004
 20
5.641510536183293
 10
5.70306118600023
 20
5.49951053618324
 42
0.4142135623738112
 10
5.796061186000475
 20
5.406510536183279
 10
5.797061186000451
 20
5.406510536183279
 10
5.797061186000451
 20
5.313510536183319
 10
5.796061186000475
 20
5.313510536183319
 42
0.4142135623738112
 10
5.7030611860004
 20
5.220510536183244
 10
5.70306118600023
 20
5.12451053618324
 42
0.4142135623738112
 10
5.796061186000475
 20
5.031510536183279
 10
5.797061186000451
 20
5.031510536183279
 10
5.797061186000451
 20
4.938510536183319
 10
5.796061186000475
 20
4.938510536183319
 42
0.4142135623738112
 10
5.7030611860004
 20
4.845510536183244
 10
5.703061186000457
 20
4.646510536183289
 42
-0.4142135623730951
 10
5.641061186000502
 20
4.584510536183277
 10
5.484061186000349
 20
4.58451053618322
 42
-0.4142135623730315
 10
4.959061186000486
 20
5.109510536183254
 10
4.959061186000429
 20
6.028510536183237
 42
-0.4142135623741692
 10
4.990061186000435
 20
6.059510536183299
 10
5.032421453541179
 20
6.059510536183354
 42
-0.2985092228421621
 10
5.060846732882211
 20
6.040879994311326
 42
0.4898801507154533
 10
5.324251086874145
 20
5.973813650245263
 42
0.9999999999980916
 10
5.26649032709427
 20
6.047973576281064
 42
-2.046398478150284
 10
5.266490327094178
 20
6.17104749608544
 42
0.9999999999980918
 10
5.324251086874165
 20
6.245207422121385
 42
0.4898801507156411
 10
5.060846732882227
 20
6.178141078055174
 42
-0.2985092228433623
 10
5.032421453541179
 20
6.159510536183322
 10
4.990061186000435
 20
6.159510536183322
 42
-0.4142135623730951
 10
4.959061186000486
 20
6.190510536183271
 10
4.959061186000656
 20
7.109510536183254
 42
-0.4142135623730317
 10
5.484061186000349
 20
7.634510536183231
 10
7.50906118600044
 20
7.634510536183288
 42
-0.4142135623730315
 10
8.034061186000304
 20
7.109510536183254
 10
8.034061186000304
 20
6.190510536183271
 42
-0.4142135623730951
 10
8.003061186000355
 20
6.159510536183322
 10
7.960700918459611
 20
6.159510536183212
 42
-0.2985092228433623
 10
7.932275639118632
 20
6.178141078055205
 42
0.489880150715641
 10
7.668871285126645
 20
6.245207422121358
 42
0.9999999999980916
 10
7.726632044906575
 20
6.171047496085487
 42
-2.046398478150284
 10
7.726632044906612
 20
6.047973576281181
 42
0.9999999999980916
 10
7.668871285126635
 20
5.973813650245251
 42
0.4898801507154532
 10
7.932275639118701
 20
6.040879994311273
 42
-0.2985092228421621
 10
7.960700918459611
 20
6.059510536183299
 10
8.003061186000355
 20
6.059510536183356
 42
-0.4142135623741692
 10
8.034061186000304
 20
6.028510536183237
 10
8.034061186000133
 20
5.109510536183254
 42
-0.4142135623730314
 10
7.50906118600044
 20
4.584510536183277
 10
7.352061186000288
 20
4.584510536183334
 42
-0.4142135623730951
 10
7.290061186000389
 20
4.646510536183289
 10
7.290061186000617
 20
4.845510536183244
 42
0.4142135623738112
 10
7.197061186000315
 20
4.938510536183319
 10
7.196061186000338
 20
4.938510536183319
 10
7.196061186000338
 20
5.031510536183279
 10
7.197061186000315
 20
5.031510536183223
 42
0.4142135623738112
 10
7.290061186000389
 20
5.12451053618324
 10
7.290061186000617
 20
5.220510536183244
 42
0.4142135623738112
 10
7.197061186000315
 20
5.313510536183319
 10
7.196061186000338
 20
5.313510536183319
 10
7.196061186000338
 20
5.406510536183279
 10
7.197061186000315
 20
5.406510536183223
 42
0.4142135623738115
 10
7.290061186000389
 20
5.49951053618324
  0
LWPOLYLINE
  5
1C8
330
1F
100
AcDbEntity
  8
L
 62
     5
100
AcDbPolyline
 90
       71
 70
     1
 43
0.0
 10
7.102561186000333
 20
5.265510536183317
 10
7.102561186000389
 20
5.265510536183317
 10
7.102561186000389
 20
5.453510536183305
 42
-0.4142135623730951
 10
7.133561186000338
 20
5.484510536183254
 10
7.186061186000348
 20
5.484510536183254
 42
0.4142135623730951
 10
7.196061186000338
 20
5.494510536183245
 10
7.196061186000338
 20
5.578510536183305
 42
0.4142135623730951
 10
7.165061186000389
 20
5.609510536183254
 10
6.756561186000386
 20
5.609510536183254
 10
6.746561186000395
 20
5.619510536183245
 10
6.736561186000404
 20
5.609510536183254
 10
6.256561186000386
 20
5.609510536183254
 10
6.246561186000395
 20
5.619510536183245
 10
6.236561186000404
 20
5.609510536183254
 10
5.8280611860004
 20
5.609510536183254
 42
0.4142135623730951
 10
5.797061186000451
 20
5.578510536183305
 10
5.797061186000451
 20
5.494510536183245
 42
0.4142135623730951
 10
5.807061186000442
 20
5.484510536183254
 10
5.859561186000451
 20
5.484510536183254
 42
-0.4142135623730951
 10
5.8905611860004
 20
5.453510536183305
 10
5.8905611860004
 20
5.265510536183317
 10
5.890561186000457
 20
5.265510536183317
 42
-0.4142135623741695
 10
5.859561186000451
 20
5.234510536183197
 10
5.859561186000451
 20
5.234510536183254
 10
5.807061186000442
 20
5.234510536183254
 42
0.4142135623730951
 10
5.797061186000451
 20
5.224510536183263
 10
5.797061186000451
 20
5.119510536183245
 42
0.4142135623730951
 10
5.807061186000442
 20
5.109510536183254
 10
5.859561186000451
 20
5.109510536183254
 42
-0.4142135623730951
 10
5.8905611860004
 20
5.078510536183305
 10
5.8905611860004
 20
4.890510536183317
 10
5.890561186000457
 20
4.890510536183317
 42
-0.4142135623741695
 10
5.859561186000451
 20
4.859510536183197
 10
5.859561186000451
 20
4.859510536183254
 10
5.807061186000442
 20
4.859510536183254
 42
0.4142135623730951
 10
5.797061186000451
 20
4.849510536183263
 10
5.797061186000451
 20
4.744510536183245
 42
0.4142135623730951
 10
5.807061186000442
 20
4.734510536183254
 10
5.859561186000451
 20
4.734510536183254
 42
-0.4142135623730951
 10
5.8905611860004
 20
4.703510536183305
 10
5.8905611860004
 20
4.494510536183245
 42
-0.4142135623730951
 10
5.880561186000409
 20
4.484510536183254
 10
5.484061186000349
 20
4.484510536183254
 42
-0.4142135623730951
 10
4.859061186000349
 20
5.109510536183254
 10
4.859061186000349
 20
7.109510536183254
 42
-0.4142135623730951
 10
5.484061186000349
 20
7.734510536183254
 10
7.50906118600044
 20
7.734510536183254
 42
-0.4142135623730951
 10
8.13406118600044
 20
7.109510536183254
 10
8.13406118600044
 20
5.109510536183254
 42
-0.4142135623730951
 10
7.50906118600044
 20
4.484510536183254
 10
7.11256118600038
 20
4.484510536183254
 42
-0.4142135623730951
 10
7.102561186000389
 20
4.494510536183245
 10
7.102561186000389
 20
4.703510536183305
 42
-0.4142135623730951
 10
7.133561186000338
 20
4.734510536183254
 10
7.186061186000348
 20
4.734510536183254
 42
0.4142135623730951
 10
7.196061186000338
 20
4.744510536183245
 10
7.196061186000338
 20
4.849510536183263
 10
7.196061186000111
 20
4.849510536183263
 42
0.4142135623664355
 10
7.186061186000348
 20
4.859510536183254
 10
7.133561186000338
 20
4.859510536183254
 10
7.133561186000338
 20
4.859510536183197
 42
-0.4142135623741692
 10
7.102561186000333
 20
4.890510536183317
 10
7.102561186000389
 20
4.890510536183317
 10
7.102561186000389
 20
5.078510536183305
 42
-0.4142135623730951
 10
7.133561186000338
 20
5.109510536183254
 10
7.186061186000348
 20
5.109510536183254
 42
0.4142135623730951
 10
7.196061186000338
 20
5.119510536183245
 10
7.196061186000338
 20
5.224510536183263
 42
0.4142135623730951
 10
7.186061186000348
 20
5.234510536183254
 10
7.133561186000338
 20
5.234510536183254
 10
7.133561186000338
 20
5.234510536183197
 42
-0.4142135623741692
  0
ENDSEC
  0
SECTION
  2
OBJECTS
  0
DICTIONARY
  5
C
330
0
100
AcDbDictionary
  3
ACAD_GROUP
350
D
  3
ACAD_LAYOUT
350
1A
  3
ACAD_MLINESTYLE
350
17
  3
ACAD_PLOTSETTINGS
350
19
  3
ACAD_PLOTSTYLENAME
350
E
  3
ACDBHEADERROUNDTRIPXREC
350
1ED
  0
DICTIONARY
  5
20F
330
1F
100
AcDbDictionary
280
     1
  3
ACAD_LAYOUTSELFREF
360
210
  0
DICTIONARY
  5
20D
330
1B
100
AcDbDictionary
280
     1
  3
ACAD_LAYOUTSELFREF
360
20E
  0
DICTIONARY
  5
D
102
{ACAD_REACTORS
330
C
102
}
330
C
100
AcDbDictionary
  0
DICTIONARY
  5
1A
102
{ACAD_REACTORS
330
C
102
}
330
C
100
AcDbDictionary
  0
DICTIONARY
  5
17
102
{ACAD_REACTORS
330
C
102
}
330
C
100
AcDbDictionary
  3
STANDARD
350
18
  0
DICTIONARY
  5
19
102
{ACAD_REACTORS
330
C
102
}
330
C
100
AcDbDictionary
  0
ACDBDICTIONARYWDFLT
  5
E
102
{ACAD_REACTORS
330
C
102
}
330
C
100
AcDbDictionary
281
     1
  3
Normal
350
F
100
AcDbDictionaryWithDefault
340
F
  0
DICTIONARY
  5
1ED
102
{ACAD_REACTORS
330
C
102
}
330
C
100
AcDbDictionary
  3
CEPSNTYPE
350
1F7
  3
FINGERPRINTGUID
350
1F8
  3
HYPERLINKBASE
350
1F0
  3
INSUNITS
350
1F6
  3
LAYOUTDICT
350
1F2
  3
LWETCUNION
350
1F5
  3
PLOTSETDICT
350
1F3
  3
PLOTSTYLNAMDICT
350
1F4
  3
PSVPSCALE
350
1FA
  3
PUCSBASE
350
1FD
  3
PUCSORGBACK
350
203
  3
PUCSORGBOTTOM
350
1FF
  3
PUCSORGFRONT
350
202
  3
PUCSORGLEFT
350
200
  3
PUCSORGRIGHT
350
201
  3
PUCSORGTOP
350
1FE
  3
PUCSORTHOREF
350
1FB
  3
PUCSORTHOVIEW
350
1FC
  3
STYLESHEET
350
1F1
  3
TSTACKALIGN
350
1EE
  3
TSTACKSIZE
350
1EF
  3
UCSBASE
350
206
  3
UCSORGBACK
350
20C
  3
UCSORGBOTTOM
350
208
  3
UCSORGFRONT
350
20B
  3
UCSORGLEFT
350
209
  3
UCSORGRIGHT
350
20A
  3
UCSORGTOP
350
207
  3
UCSORTHOREF
350
204
  3
UCSORTHOVIEW
350
205
  3
VERSIONGUID
350
1F9
  0
XRECORD
  5
210
102
{ACAD_REACTORS
330
20F
102
}
330
20F
100
AcDbXrecord
340
1F
  0
XRECORD
  5
20E
102
{ACAD_REACTORS
330
20D
102
}
330
20D
100
AcDbXrecord
340
1B
  0
MLINESTYLE
  5
18
102
{ACAD_REACTORS
330
17
102
}
330
17
100
AcDbMlineStyle
  2
STANDARD
 70
     0
  3

 62
   256
 51
90.0
 52
90.0
 71
     2
 49
0.5
 62
   256
  6
BYLAYER
 49
-0.5
 62
   256
  6
BYLAYER
  0
ACDBPLACEHOLDER
  5
F
102
{ACAD_REACTORS
330
E
102
}
330
E
100
AcDbPlaceHolder
280
     0
  0
XRECORD
  5
1F7
102
{ACAD_REACTORS
330
1ED
102
}
330
1ED
100
AcDbXrecord
 90
        0
  0
XRECORD
  5
1F8
102
{ACAD_REACTORS
330
1ED
102
}
330
1ED
100
AcDbXrecord
  1
{DC175E3D-AE85-11D5-9A93-0040C77E826B}
  0
XRECORD
  5
1F0
102
{ACAD_REACTORS
330
1ED
102
}
330
1ED
100
AcDbXrecord
  1

  0
XRECORD
  5
1F6
102
{ACAD_REACTORS
330
1ED
102
}
330
1ED
100
AcDbXrecord
 90
        1
  0
XRECORD
  5
1F2
102
{ACAD_REACTORS
330
1ED
102
}
330
1ED
100
AcDbXrecord
340
1A
  0
XRECORD
  5
1F5
102
{ACAD_REACTORS
330
1ED
102
}
330
1ED
100
AcDbXrecord
 90
    10781
  0
XRECORD
  5
1F3
102
{ACAD_REACTORS
330
1ED
102
}
330
1ED
100
AcDbXrecord
340
19
  0
XRECORD
  5
1F4
102
{ACAD_REACTORS
330
1ED
102
}
330
1ED
100
AcDbXrecord
340
E
  0
XRECORD
  5
1FA
102
{ACAD_REACTORS
330
1ED
102
}
330
1ED
100
AcDbXrecord
 40
0.0
  0
XRECORD
  5
1FD
102
{ACAD_REACTORS
330
1ED
102
}
330
1ED
100
AcDbXrecord
340
0
  0
XRECORD
  5
203
102
{ACAD_REACTORS
330
1ED
102
}
330
1ED
100
AcDbXrecord
 10
0.0
 20
0.0
 30
0.0
  0
XRECORD
  5
1FF
102
{ACAD_REACTORS
330
1ED
102
}
330
1ED
100
AcDbXrecord
 10
0.0
 20
0.0
 30
0.0
  0
XRECORD
  5
202
102
{ACAD_REACTORS
330
1ED
102
}
330
1ED
100
AcDbXrecord
 10
0.0
 20
0.0
 30
0.0
  0
XRECORD
  5
200
102
{ACAD_REACTORS
330
1ED
102
}
330
1ED
100
AcDbXrecord
 10
0.0
 20
0.0
 30
0.0
  0
XRECORD
  5
201
102
{ACAD_REACTORS
330
1ED
102
}
330
1ED
100
AcDbXrecord
 10
0.0
 20
0.0
 30
0.0
  0
XRECORD
  5
1FE
102
{ACAD_REACTORS
330
1ED
102
}
330
1ED
100
AcDbXrecord
 10
0.0
 20
0.0
 30
0.0
  0
XRECORD
  5
1FB
102
{ACAD_REACTORS
330
1ED
102
}
330
1ED
100
AcDbXrecord
340
0
  0
XRECORD
  5
1FC
102
{ACAD_REACTORS
330
1ED
102
}
330
1ED
100
AcDbXrecord
 70
     0
  0
XRECORD
  5
1F1
102
{ACAD_REACTORS
330
1ED
102
}
330
1ED
100
AcDbXrecord
  1

  0
XRECORD
  5
1EE
102
{ACAD_REACTORS
330
1ED
102
}
330
1ED
100
AcDbXrecord
 90
        1
  0
XRECORD
  5
1EF
102
{ACAD_REACTORS
330
1ED
102
}
330
1ED
100
AcDbXrecord
 90
       70
  0
XRECORD
  5
206
102
{ACAD_REACTORS
330
1ED
102
}
330
1ED
100
AcDbXrecord
340
0
  0
XRECORD
  5
20C
102
{ACAD_REACTORS
330
1ED
102
}
330
1ED
100
AcDbXrecord
 10
0.0
 20
0.0
 30
0.0
  0
XRECORD
  5
208
102
{ACAD_REACTORS
330
1ED
102
}
330
1ED
100
AcDbXrecord
 10
0.0
 20
0.0
 30
0.0
  0
XRECORD
  5
20B
102
{ACAD_REACTORS
330
1ED
102
}
330
1ED
100
AcDbXrecord
 10
0.0
 20
0.0
 30
0.0
  0
XRECORD
  5
209
102
{ACAD_REACTORS
330
1ED
102
}
330
1ED
100
AcDbXrecord
 10
0.0
 20
0.0
 30
0.0
  0
XRECORD
  5
20A
102
{ACAD_REACTORS
330
1ED
102
}
330
1ED
100
AcDbXrecord
 10
0.0
 20
0.0
 30
0.0
  0
XRECORD
  5
207
102
{ACAD_REACTORS
330
1ED
102
}
330
1ED
100
AcDbXrecord
 10
0.0
 20
0.0
 30
0.0
  0
XRECORD
  5
204
102
{ACAD_REACTORS
330
1ED
102
}
330
1ED
100
AcDbXrecord
340
0
  0
XRECORD
  5
205
102
{ACAD_REACTORS
330
1ED
102
}
330
1ED
100
AcDbXrecord
 70
     0
  0
XRECORD
  5
1F9
102
{ACAD_REACTORS
330
1ED
102
}
330
1ED
100
AcDbXrecord
  1
{B0CFA873-C47D-40C4-9FFF-8DABC3B61606}
  0
ENDSEC
  0
EOF
